Download Doraemon Movie 2015 Nobita And The Space Heroes

Posted by

Download Doraemon Movie 2015

Doraemon Movie 2015 Nobita And The Space Heroes

Download Doraemon movie Nobita And The Space Heroes kali ini yaitu seri doraemon yang ke-35 di tahun 2015 ini, lalu Doraemon movie Nobita And The Space Heroes adalah merupakan cerita baru bukan lah versi remake seperti tahun kemarin yang judulnya Doraemon New Nobita's Great Demon. Movie ini di tayangkan di jepang pada tanggal 29 mei 2015.
Untuk jenis film doraemon kali ini bukan raw, melainkan hardsub jepang.. tapi teman-teman tidak usah khawatir karena ada subtitle untuk bahasa indonesia nya juga ^_^

Doraemon Movie 2015 Nobita And The Space Heroes



Format File:
Complete name: Doraemon Movie 35\Nobita and the Space Heroes (2015) www.ghie-lhanx.com.mp4
Format: MPEG-4
Format profile: Base Media
Codec ID: isom
File size: 870 MiB
Duration: 1h 40mn
Overall bit rate mode: Variable
Overall bit rate: 1 209 Kbps

Video
ID: 1
Format: AVC
Format/Info: Advanced Video Codec
Format profile: [email protected]
Format settings, CABAC: Yes
Format settings, ReFrames: 6 frames
Codec ID: avc1
Codec ID/Info: Advanced Video Coding
Duration: 1h 40mn
Bit rate: 1 052 Kbps
Maximum bit rate: 10.9 Mbps
Width: 1 280 pixels
Height: 720 pixels
Display aspect ratio: 16:9
Frame rate mode: Constant
Frame rate: 23.976 fps
Color space: YUV
Chroma subsampling: 4:2:0
Bit depth: 8 bits
Scan type: Progressive
Bits/(Pixel*Frame): 0.048
Stream size: 757 MiB (87%)
Writing library: x264 core 142 r2431+42 c69a006 tMod [[email protected] X86_64]

Audio
ID: 2
Format: AAC
Format/Info: Advanced Audio Codec
Format profile: LC
Codec ID: 40
Duration: 1h 40mn
Bit rate mode: Variable
Bit rate: 153 Kbps
Maximum bit rate: 207 Kbps
Channel(s): 2 channels
Channel positions: Front: L R
Sampling rate: 48.0 KHz
Compression mode: Lossy
Stream size: 110 MiB (13%)

CERITA:
Film ini menceritakan tentang Doraemon, Nobita, Shizuka, Gian dan Suneo yang sedang membuat film pahlawan tentang luar angkasa ketika seorang anak lelaki bernama Aron datang dan mengatakan kepada Doraemon dan kawan-kawan bahwa planetnya diserang oleh makhluk asing, lalu mereka pun pergi berpetualang ke luar angkasa untuk bertarung dengan monster. Masing-masing dari mereka mempunyai kekuatan super, Doraemon dengan super punch-nya, Nobita dengan gerakan cat’s cradle-nya, Shizuka dengan kekuatan untuk mengendalikan air, Gian dengan kekuatan yang super tangguh, dan Suneo dengan bor yang kuat di lengannya.

Bagaimanakah kelanjutannya?..penasaran?.. kalo iya silahkan download Film nya
di bawah ini
Gratis...!!

Sekian dulu teman-teman...
Akhir kata, aku mengucapkan banyak terima kasih atas kunjungannya.
Dan jangan lupa untuk mampir lagi yach...!!



Doraemon Movie Updated at: September 02, 2015

5 Comments:

  1. mantaps kaka terimakasih :D

    BalasHapus
    Balasan
    1. Makasih ya sudah berkunjung, sedikit demi sedikit akan di perbaiki lagi beberapa link yang sudah mati, maaf atas ketidak nyamanannya selama ini ya .. ^_^

      Hapus
  2. Wah Doraemon the movie ada juga yah di tahun 2015, makasih linknya :D

    BalasHapus
  3. Советую:) индивидуалки Москва столичная и областная. Девушки на выезд. Рекомендуем.

    BalasHapus

Jangan berkomentar spam yach teman-teman...!!
Kalo bisa pilih yang Name/URL aja ya lalu di isi namanya, buat yang ga punya blog/web biar dikosongin aja kolom URL nya atau bisa juga di isi dengan url profil facebok atau twitter kalian tapi namanya tetap di isi, Ok!!
Makasih banyak atas kunjungan dan komentarnya.

 Film Doraemon The movie
 Download film doraemon the movie lengkap
  dari tahun 1980 s/d 2015

 Komik Doraemon Petualangan
 Download komik doraemon petualangan lengkap
  dari vol 1 s/d vol 24

 Komik Dragon Ball Z
 Download komik dragon ball z bahasa indonesia
 lengkap dari vol 1 s/d 42

 Komik Kungfu Komang
 Download komik kungfu komang bahasa
 indonesia

Temukan di Google Play

Jual Batu Alam Berkualitas:-->> CV. Istiqomah Batu Alam -- CV. Oyon Jaya Stone