Download Doraemon Great Adventure in the Antarctic Kachi Kochi 2017

Posted by

Download Doraemon Movie 2017

Download Doraemon movie 2017

Download Doraemon Movie Terbaru 2017 Nobita’s Great Adventure in the Antarctic Kachi Kochi bahasa indonesia atau dalam versi jepangnya yang berjudul Doraemon Nobita no Nankyoku kachikochi dai bōken bahasa indonesia, seri doraemon movie kali ini yaitu seri doraemon yang ke-35 di tahun 2017, Doraemon movie 2017 Nobita’s Great Adventure in the Antarctic Kachi Kochi di tayangkan di jepang pada tanggal 04 Maret 2017.
Untuk jenis film doraemon kali ini bukan raw, melainkan hardsub indonesia.. jadi teman-teman tidak usah khawatir karena sudah ada subtitle untuk bahasa indonesia nya juga ^_^

Download Doraemon movie 2017

Format File:
Complete name: Doraemon Movie 37\Nobita Great Adventure in the Antarctic Kachi Kochi (2017) www.ghie-lhanx.com.mp4<br />
Format: MPEG-4
Format profile: Base Media / Version 2
Codec ID: mp42 (isom/iso2/avc1/mp41)
File size: 661 MiB
Duration: 1 h 40 min
Overall bit rate mode: Variable
Overall bit rate: 916 kb/s
Recorded date: 2017
Encoded date: UTC 2017-08-22 03:28:38
Tagged date: UTC 2017-08-22 03:28:38
Writing application: HandBrake 1.0.7 2017040900

Video
ID: 1
Format: AVC
Format/Info: Advanced Video Codec
Format profile: Main@L3.1
Format settings, CABAC: Yes
Format settings, ReFrames: 4 frames
Codec ID: avc1
Codec ID/Info: Advanced Video Coding
Duration: 1 h 40 min
Bit rate: 812 kb/s
Width: 1 280 pixels
Height: 720 pixels
Display aspect ratio: 16:9
Frame rate mode: Variable
Frame rate: 23.976 (24000/1001) FPS
Minimum frame rate: 23.974 FPS
Maximum frame rate: 23.981 FPS
Color space: YUV
Chroma subsampling: 4:2:0
Bit depth: 8 bits
Scan type: Progressive
Bits/(Pixel*Frame): 0.037
Stream size: 586 MiB (89%)
Writing library: x264 core 148 r2708 86b7198
Encoding settings: cabac=1 / ref=3 / deblock=1:3:2 / analyse=0x1:0x131 / me=hex / subme=7 / psy=1 / psy_rd=1.00:0.00 / mixed_ref=1 / me_range=16 / chroma_me=1 / trellis=1 / 8x8dct=0 / cqm=0 / deadzone=21,11 / fast_pskip=1 / chroma_qp_offset=-2 / threads=3 / lookahead_threads=1 / sliced_threads=0 / nr=0 / decimate=1 / interlaced=0 / bluray_compat=0 / constrained_intra=0 / bframes=3 / b_pyramid=2 / b_adapt=1 / b_bias=0 / direct=3 / weightb=1 / open_gop=0 / weightp=2 / keyint=240 / keyint_min=24 / scenecut=40 / intra_refresh=0 / rc_lookahead=40 / rc=crf / mbtree=1 / crf=23.0 / qcomp=0.60 / qpmin=0 / qpmax=69 / qpstep=4 / vbv_maxrate=900 / vbv_bufsize=3600 / crf_max=0.0 / nal_hrd=none / filler=0 / ip_ratio=1.40 / aq=2:0.80
Encoded date: UTC 2017-08-22 03:28:38
Tagged date: UTC 2017-08-22 03:28:38
Color range: Limited
Color primaries: BT.709
Transfer characteristics: BT.709
Matrix coefficients: BT.709

Audio
ID: 2
Format: AAC
Format/Info: Advanced Audio Codec
Format profile: LC
Codec ID: 40
Duration: 1 h 40 min
Bit rate mode: Variable
Bit rate: 96.0 kb/s
Channel(s): 2 channels
Channel positions: Front: L R
Sampling rate: 44.1 kHz
Frame rate: 43.066 FPS (1024 spf)
Compression mode: Lossy
Stream size: 69.2 MiB (10%)
Title: Stereo / Stereo
Language: English
Default: Yes
Alternate group: 1
Encoded date: UTC 2017-08-22 03:28:38
Tagged date: UTC 2017-08-22 03:28:38

CERITA:
Karena tidak mampu menahan panas pada musim panas, Doraemon mengajak Nobita dan teman-temannya ke gunung es yang berada di Pasifik Selatan. Sambil menciptakan taman hiburan dengan alat rahasia "Ice-working Iron" Doraemon dan kawan-kawan menemukan sebuah cincin emas misterius di dalam es. Setelah diselidiki, ternyata cincin itu telah ada di Antartika sejak 100.000 tahun yang lalu - sebelum orang-orang bisa tinggal di sana. Doraemon dan teman-teman menuju ke Antartika mencari pemilik cincin itu dan menemukan reruntuhan kota besar yang terkubur di es. Menggunakan Doraemon's Time Belt, kelompok ini melakukan perjalanan kembali 100.000 tahun yang lalu dan bertemu dengan gadis muda Kara yang terhubung dengan cincin misterius tersebut. Tapi sekarang kelompok tersebut harus berjuang untuk bertahan hidup karena Doraemon menghadapi krisis seluruh pembekuan di seluruh bumi.

Bagaimanakah kelanjutannya?..penasaran?.. kalo iya silahkan download film doraemon movie nya
di bawah ini:

 " Download Doraemon Movie 2017 Nobita’s Great Adventure in the Antarctic Kachi Kochi "

Gratis...!!

Sekian dulu teman-teman...
Akhir kata, aku mengucapkan banyak terima kasih atas kunjungannya.
Dan jangan lupa untuk mampir lagi yach...!!


Tag:
download doraemon movie 2017 indo
doraemon movie 2017 subtitle bahasa indonesia
doraemon movie Great Adventure in the Antarctic Kachi Kochi indo
doraemon movie Nobita no Nankyoku kachikochi dai bōken indo
download doraemon movie subtitle indonesia
Doraemon the Movie
Rating: 4.5


Doraemon Movie Updated at: September 23, 2017

0 comments:

Post a Comment

Jangan berkomentar spam yach teman-teman...!!
Kalo bisa pilih yang Name/URL aja ya lalu di isi namanya, buat yang ga punya blog/web biar dikosongin aja kolom URL nya atau bisa juga di isi dengan url profil facebok atau twitter kalian tapi namanya tetap di isi, Ok!!
Makasih banyak atas kunjungan dan komentarnya.

Follow by Email

 Film Doraemon The movie
 Download film doraemon the movie lengkap
  dari tahun 1980 s/d 2015

 Komik Doraemon Petualangan
 Download komik doraemon petualangan lengkap
  dari vol 1 s/d vol 24

 Komik Dragon Ball Z
 Download komik dragon ball z bahasa indonesia
 lengkap dari vol 1 s/d 42

 Komik Kungfu Komang
 Download komik kungfu komang bahasa
 indonesia

Donasi


PERHATIAN..!! Karena sedang error, Untuk link adf.ly nya silahkan di decode di alamat ini:-->> http://adf.boxxod.net/?hs=adf